Details for this torrent 

Only Connect S14E17 Motorheads v LARPers. revittony
Type:
Video > TV shows
Files:
1
Size:
390.49 MiB (409456036 Bytes)
Info:
IMDB
Tag(s):
tt1294009
Uploaded:
2019-02-12 12:02:51 GMT
By:
revittony1 Trusted
Seeders:
0
Leechers:
1
Comments
0  

Info Hash:
657BE8762F1C606BE3034F8D140966235F9F9AB9




(Problems with magnets links are fixed by upgrading your torrent client!)
 https://www.imdb.com/title/tt1294009



Format : MPEG-4 
Format profile : Base Media 
Codec ID : isom (isom/iso2/avc1/mp41) 
File size : 342 MiB 
Duration : 28 min 54 s 
Overall bit rate : 1 652 kb/s 


Video 
ID : 1 
Format : AVC 
Format/Info : Advanced Video Codec 
Format profile : [email protected] 
Format settings : CABAC / 4 Ref Frames 
Format settings, CABAC : Yes 
Format settings, RefFrames : 4 frames 
Format settings, GOP : M=8, N=96 
Codec ID : avc1 
Codec ID/Info : Advanced Video Coding 
Duration : 28 min 54 s 
Bit rate : 1 554 kb/s 
Width : 960 pixels 
Height : 540 pixels 
Display aspect ratio : 16:9 
Frame rate mode : Constant 
Frame rate : 25.000 FPS 
Color space : YUV 
Chroma subsampling : 4:2:0 
Bit depth : 8 bits 
Scan type : Progressive 
Bits/(Pixel*Frame) : 0.120 
Stream size : 321 MiB (94%) 
Color range : Limited 
Color primaries : BT.709 
Transfer characteristics : BT.709 
Matrix coefficients : BT.709 
Codec configuration box : avcC 

Audio 
ID : 2 
Format : AAC LC SBR 
Format/Info : Advanced Audio Codec Low Complexity with Spectral Band Replication 
Commercial name : HE-AAC 
Format settings : Implicit 
Codec ID : mp4a-40-2 
Duration : 28 min 54 s 
Bit rate mode : Constant 
Bit rate : 96.0 kb/s 
Channel(s) : 2 channels 
Channel layout : L R 
Sampling rate : 48.0 kHz 
Frame rate : 23.438 FPS (2048 SPF) 
Compression mode : Lossy 
Stream size : 19.6 MiB (6%) 
Language : English 
Default : Yes 
Alternate group : 1